#TITLE:PARANOIA;
#SUBTITLE:(Jungle Crash);
#ARTIST:DJ Potatoe;
#TITLETRANSLIT:;
#SUBTITLETRANSLIT:;
#ARTISTTRANSLIT:;
#CREDIT:;
#BANNER:ParanoiaJC-banner.png;
#BACKGROUND:ParanoiaJC-bg.png;
#LYRICSPATH:;
#CDTITLE:;
#MUSIC:paranoia Jungle Groove.mp3;
#MUSICLENGTH:101.381;
#OFFSET:-0.060;
#SAMPLESTART:49.605;
#SAMPLELENGTH:12.000;
#SELECTABLE:YES;
#BPMS:0.000=140.000,32.000=280.000,160.000=140.000,198.000=280.000,374.000=200.000,377.000=120.000,378.667=80.000,379.333=30.000;
#STOPS:192.000=0.400
,194.000=0.400
;
#BGCHANGES:;
#FIRSTBEAT:8.000;

#LASTBEAT:380.000;

#SONGFILENAME:Songs/ERICth MIX 2nd Style/Paranoia/paranoia.sm;

#HASMUSIC:1;

#HASBANNER:1;


//---------------dance-single - MANIAC----------------
#NOTES:
     dance-single:
     MANIAC:
     hard:
     10:
     0.667,0.795,0.434,0.079,0.010,421.000,44.000,8.000,0.000,0.000:

0000
0000
0000
0000
,
0000
0000
0000
0000
,
1001
0000
1001
0000
1000
0100
1000
0001
,
1000
0000
0001
0010
0001
1000
0001
0000
,
0110
0000
0110
0000
0010
1000
0100
0000
,
0010
0001
0100
0000
0010
1000
0100
0000
,
1001
1001
1100
0101
,
1000
0001
0100
0010
0001
0010
1000
0000
,
1000
0001
1000
0100
,
1000
0001
1000
0100
1000
0000
0101
0000
,
0001
1000
0001
0100
,
0001
1000
0001
0100
0001
0000
1100
0000
,
1000
0100
0010
0001
,
1000
0100
0010
0001
,
1000
0000
0001
0000
1000
0010
1000
0010
,
1000
0010
0100
0001
,
1000
0010
0100
0001
,
0001
0100
0100
1000
,
0001
1000
0001
0100
0001
1000
0001
0100
,
0001
0010
0001
0010
0001
0100
1000
0100
,
0001
0010
0001
0010
0001
1000
0001
1000
,
0100
0001
0100
1000
,
0100
0100
0100
0100
,
0100
0000
1000
0100
1000
0000
0100
0000
,
0010
0001
0010
0001
0010
0001
0010
0000
,
1001
0000
1100
0000
,
0101
0000
1100
0000
,
1000
0001
1000
0001
1000
0100
1000
0100
,
1000
0010
1000
0010
1000
0001
1000
0001
,
1000
0001
0100
0010
,
1000
0100
0001
0100
1000
0000
0000
0000
,
1000
0100
0010
0100
1000
0000
0000
0000
,
1000
0010
0001
0010
1000
0000
0000
0000
,
1000
0010
0100
0010
1000
0000
0000
0000
,
1000
0001
0100
0001
0010
0000
0000
0000
,
0001
1000
0100
1000
0010
0000
0000
0000
,
1100
0000
0011
0000
,
1001
0000
0110
0000
,
1010
0000
0101
0000
,
0110
0000
1001
0000
,
1000
0100
0010
0100
1000
0010
0001
0010
,
1000
0100
0010
0001
0100
1000
0100
0010
,
0001
0010
1000
0100
0001
0100
0010
0100
,
0001
0100
0010
0100
1000
0100
1000
0010
,
0001
0100
0001
0010
1000
0001
1000
0001
,
1000
0000
0000
1001
0000
1001
0000
1000
,
0010
1000
0001
0010
0001
0100
1000
0000
,
1000
0000
0001
0000
1000
0001
1000
0000
,
1001
1001
1001
1001
,
1001
1001
0001
1000
,
0001
1000
0001
0000
,
0000
0000
0010
1000
0100
1000
0100
0000
,
0000
0000
0010
0001
0100
0001
0100
0000
,
0000
0000
0010
1000
0001
1000
0100
0000
,
0000
0000
0010
0001
1000
0001
0100
0000
,
1000
0100
0001
0100
,
0010
0100
0010
0100
,
0110
0000
0010
1000
0010
0000
1000
0010
,
1000
0000
0100
1000
0100
0000
1000
0100
,
1000
0000
0010
0100
0010
0000
0100
0010
,
0100
0000
0001
0100
0001
0000
0100
0001
,
0100
0000
0001
0010
0001
0000
0010
0001
,
0010
0000
0001
1000
0001
0000
1000
0001
,
1000
0000
0001
1000
0010
1000
0001
1000
,
0010
1000
0001
1000
0010
1000
0001
0000
,
0000
0000
2001
0000
,
0001
0000
0001
3000
,
1000
0000
1002
0000
,
1000
0000
1000
0003
,
1000
0000
0120
0000
,
0100
0000
0100
0030
,
0100
0000
0210
0000
,
0010
0000
0010
0300
,
0010
0000
2010
0000
,
0001
0000
0100
3000
,
0001
0000
1002
0000
,
0010
0000
0100
0003
,
1000
0000
2002
0000
,
0000
0000
0000
0000
,
0000
3003
0001
1000
,
0001
1000
0100
1000
,
0100
0000
1000
0001
1000
0000
0010
0000
,
1000
0100
0001
0100
,
1000
1000
0100
0100
,
0001
0001
0010
0010
,
1000
0100
1000
0000
0100
0000
0100
0000
,
0001
0001
0010
0001
,
0001
1000
0010
0000
0100
0000
0010
0000
,
1000
0001
1000
0001
,
0110
0000
0001
0001
,
0001
0100
1000
1000
,
1000
0000
0100
0000
0001
0100
1000
0100
,
0001
0100
1000
0000
1000
0000
0100
0000
,
0001
0000
1001
0000
,
0000
0000
0000
0000
0000
0000
1001
0000
0000
0000
0000
0000
0000
0000
0000
0000
1001
0000
0000
0000
1001
1001
0000
0000
,;

//---------------dance-single - ANOTHER----------------
#NOTES:
     dance-single:
     ANOTHER:
     medium:
     7:
     0.431,0.608,0.069,0.049,0.000,294.000,7.000,5.000,0.000,0.000:

0000
0000
0000
0000
,
0000
0000
0000
0000
,
0011
1000
0100
0010
,
0001
1000
0010
1000
,
0001
0100
0010
1000
,
0001
1000
0001
1000
0001
0000
0000
0000
,
0100
0010
0001
1000
,
2002
0000
0000
0000
0000
3003
0000
0000
,
1000
0100
1000
0010
,
1000
0000
0000
0001
0100
0000
0010
0000
,
1000
0001
0100
0010
,
1000
0000
0001
0000
1000
0000
0001
1000
,
0001
0001
0001
1000
,
0100
0000
1000
0000
0010
0000
1000
0010
,
1000
0010
1000
0001
,
0100
0001
1000
0100
,
0010
0000
0001
0000
1000
0000
0001
0100
,
0001
0000
1000
0000
0001
0010
0000
0000
,
0100
1000
0000
0000
0001
0000
0010
0000
,
0001
0000
1000
0000
0100
0000
0000
0010
,
0000
0000
1000
0100
0000
0010
0000
0001
,
0000
1000
0000
0100
0000
0000
0000
0000
,
0001
0000
0100
0000
,
0010
0000
0100
0000
,
2020
0000
0000
0000
,
0000
3030
0001
0000
,
1000
0000
0100
0000
,
0010
0000
0001
0000
,
1000
0100
0000
0100
,
1000
0000
0010
1000
,
0000
0000
0100
1000
,
0000
0000
0000
0001
0010
0000
0000
0000
,
0100
1000
0001
0100
,
0010
1000
0001
0100
,
0010
0100
0000
0000
0010
0100
0000
0001
,
0000
1000
0000
0000
0100
0000
0000
0010
,
0000
0000
0001
0000
,
1000
0000
0000
0010
0000
0000
0100
0000
,
0001
0000
0000
1000
0000
0000
0100
0000
,
0000
0010
0000
0000
0001
0000
0000
0000
,
1001
0000
0100
0000
0010
0000
0100
1000
,
0010
0000
0010
0000
1000
0001
0100
0001
,
0010
0000
0001
0000
1000
0000
0100
0010
,
0001
0000
0000
1000
0000
0100
0000
0010
,
0000
0001
1000
0100
0010
0001
1000
0000
,
0100
0000
0000
0010
0000
0010
0000
0010
,
0000
0010
1000
0010
1000
0000
0010
0000
,
0001
0100
0001
0000
,
0011
0000
0010
1000
1010
0000
1000
0000
,
0010
0000
1000
0000
0000
0001
0000
0100
,
0001
1000
0100
0010
,
0000
0001
1000
0000
0000
0100
0000
0010
,
0000
0001
1000
0000
0000
0010
0000
0100
,
1001
0000
0000
0100
0010
0000
0000
0001
,
0000
1000
0000
0100
0000
0010
0000
0000
,
0001
0000
0000
1000
0000
0000
0100
0000
,
0000
1000
0000
0000
0010
0000
0000
0000
,
1000
0000
0100
1000
0000
0100
0000
0000
,
0010
0001
1000
0100
,
0010
0000
0001
0100
,
0001
1000
0010
0100
,
0000
0000
0001
0000
,
1000
0000
0000
0000
0000
0100
0000
0000
,
0000
0010
0000
0000
0000
0100
0000
0000
,
0000
0010
0000
0000
0000
0100
0000
0000
,
0010
0000
1000
0000
,
0001
0000
0000
1000
0000
0000
0000
0001
,
0000
0000
1000
0000
0000
0001
0000
0000
,
0000
1000
0000
0000
0100
0000
0000
0010
,
0000
0001
1000
0000
,
0100
0000
0001
1000
,
0100
0010
0000
0000
,
0001
0000
1000
0100
,
0010
0000
0000
0000
0000
0001
0000
0000
,
1000
0100
0010
0100
,
0000
0000
0100
0000
0000
0000
0000
0100
,
0000
1000
0010
1000
,
0010
0000
1000
0000
,
0000
0001
0000
0000
0000
1000
0000
0000
,
0000
0001
0000
0000
0000
1000
0000
0000
,
0000
0001
0000
0000
0000
1000
0000
0000
,
0001
0000
0000
0000
0000
1000
0000
0000
,
0000
0001
0000
0000
0000
1000
0000
0000
,
0000
0001
0000
0000
0000
1000
0000
0000
,
0000
0001
0000
0000
0000
1000
0000
0000
,
0001
0000
0000
0000
0000
0010
0000
0000
,
0000
0100
0000
1000
0000
0010
0000
1000
,
0000
0001
0000
0100
0000
0010
0000
0000
,
0000
1000
0000
0000
0000
0001
0000
0010
,
0000
0100
0000
0000
0000
1000
0000
0001
,
0000
0100
0000
0000
0000
0010
0000
1000
,
0000
0001
0010
0000
0000
0100
0000
0010
,
0000
0100
1000
0000
0000
0001
0000
0000
,
1000
0000
0001
0000
,
0000
0000
2000
0000
0000
3001
0000
1000;

//---------------dance-single - BASIC----------------
#NOTES:
     dance-single:
     BASIC:
     easy:
     5:
     0.409,0.609,0.128,0.079,0.000,269.000,13.000,8.000,0.000,0.000:

0000
0000
0000
0000
,
0000
0000
0000
0000
,
0000
0000
0000
0000
,
0000
0000
0000
0000
,
0010
0000
1000
0000
,
0100
0000
0010
0001
,
0010
0000
1000
0100
,
0010
0000
0001
0000
,
1000
0100
1000
0010
,
1000
0100
1000
0010
,
1000
0001
0010
0001
,
0100
0001
0010
0001
,
0100
0001
0010
0001
,
0100
0001
1000
0001
,
1000
0100
1000
0001
,
1000
0100
1000
0001
,
0010
0001
1000
0001
,
0010
0001
1000
0001
,
0010
0001
0100
0001
,
0010
0001
0100
0001
,
1000
0100
0010
0001
,
1000
0100
0010
0001
,
1000
0100
0010
0001
,
1000
0000
0001
0000
,
1000
0000
0001
0000
,
1000
0100
1000
0010
,
1000
0100
0010
0001
,
1000
0000
0000
0000
,
0001
0000
0100
0000
,
0010
0001
1000
0000
,
0010
0100
0001
1000
,
0100
0010
0001
0000
,
0100
0010
0000
0000
,
0100
0000
0010
0000
,
0100
0000
0010
0100
,
0010
0000
0010
0000
,
0001
1000
0100
0010
,
0100
1000
0010
1000
,
0001
0100
0001
1000
,
0001
0000
1000
0000
,
0002
0000
0000
0000
,
1000
0000
1000
1000
,
2003
0000
0010
0000
,
0010
0000
0010
0010
,
0010
3200
0000
0000
,
1300
0020
0000
1030
,
0001
0100
0022
0033
,
0100
1000
0010
1000
,
1100
1100
1100
1100
,
1100
0000
1100
0000
,
0100
1000
0010
0100
,
0001
0010
0001
0100
,
0001
1001
0100
1001
,
0010
1000
0100
0000
,
0001
1000
0100
0000
,
0010
1000
0001
0000
,
0100
0001
1000
0000
,
0100
0001
1000
0000
,
0001
0010
0001
1000
,
0001
0000
0001
0010
,
0001
0000
1000
0010
,
1000
0000
0001
0000
,
1000
0000
0000
0001
,
1000
0000
0001
0000
,
1000
0000
0001
1000
,
0001
1000
0010
0100
,
0001
0002
1000
0000
,
0100
0000
0000
0000
,
1000
0000
0100
0000
,
0003
1000
0010
0000
,
1000
0100
0010
0001
,
1000
0100
0000
0001
,
0100
0000
0010
1000
,
0000
0100
1000
0010
,
0100
0001
1000
0010
,
0100
0001
0000
0100
,
0010
0000
0001
1000
,
0001
0100
0000
0001
,
0000
1000
0000
0001
,
0000
1000
0000
0001
,
1000
0000
0010
1000
,
0100
0010
0000
0001
,
1000
0110
0000
0001
,
1000
0110
0001
1000
,
0010
0000
0101
0000
,
1000
0000
0100
0010
,
0001
1000
0010
0000
,
0010
0000
0100
1000
,
0010
0000
0100
0000
,
0001
0000
1000
0000
,
0010
0000
0101
0000
,
1000
0100
0010
0000
,
0000
0001
0000
0000
,
1000
0000
0002
0000
,
0000
0000
0000
0000
,
0003
0000
0000
0000;
